#TITLE:Satisfy Me;
#SUBTITLE:;
#ARTIST:Ian Van Dahl;
#TITLETRANSLIT:;
#SUBTITLETRANSLIT:;
#ARTISTTRANSLIT:;
#CREDIT:;
#BANNER:;
#BACKGROUND:;
#LYRICSPATH:;
#CDTITLE:;
#MUSIC:ian van dahl - Satisfy Me007.ogg;
#OFFSET:-1.408;
#SAMPLESTART:37.180;
#SAMPLELENGTH:11.000;
#SELECTABLE:YES;
#BPMS:0.000=140.000;
#STOPS:;
#BGCHANGES:;
// cache tags:
#FIRSTBEAT:6.000;
#LASTBEAT:782.500;
#SONGFILENAME:Songs/nhac/Satisfy Me/Satisfy Me.sm;
#HASMUSIC:1;
#HASBANNER:0;
#MUSICLENGTH:105.000;
// end cache tags

//---------------dance-single - ----------------
#NOTES:
     dance-single:
     :
     Challenge:
     12:
     1.000,1.000,0.438,0.048,1.000,2040.000,46.000,5.000,0.000,0.000:
0000
0000
0000
0000
,
0000
0000
1000
1000
,
0010
0010
0100
0100
,
0001
0001
1000
1001
,
0001
0000
0000
0000
1001
0000
0000
0000
1000
0000
0001
0100
0001
0100
0010
1000
,
0010
1000
0001
0010
0100
1000
0010
1000
0001
0000
0100
0010
1000
0010
1000
0001
,
0010
0001
0100
0010
0100
0001
1000
0001
1000
0000
0010
1000
0010
0100
0001
0100
,
0001
0010
0100
1000
0100
0010
0001
1000
0001
0000
0000
0000
1000
0000
1100
0000
,
0000
1001
0000
1100
0000
1010
0000
0101
,
0000
0011
0000
0110
0000
1001
0000
1001
,
0000
0100
0010
1000
0001
0100
0001
0010
,
0100
0000
1000
0000
0010
1000
0010
0100
0001
0000
0000
0000
0001
0000
0101
0000
,
0000
1001
0000
0011
0000
0101
0000
1010
,
0000
1100
0000
1001
0000
0110
0000
1001
,
0000
0001
0100
0010
0100
0001
1000
0010
,
1000
0100
0010
0001
0010
0100
1000
0001
1000
0000
0001
0010
0001
0100
0010
0100
,
0001
0010
0100
1000
0100
0010
0001
1000
0001
0000
0100
0010
1000
0010
1000
0001
,
0010
0100
1000
0100
0010
0001
0100
0010
1000
0000
0001
1000
0001
1000
0100
1000
,
0100
0010
0001
0010
0001
0100
0010
1000
0001
0000
0100
0001
0100
0001
1000
0010
,
0100
0001
1000
0100
1000
0010
0100
0010
1000
0000
0001
0100
0010
0100
0001
0010
,
0100
0010
0001
1000
0100
0010
0100
1000
0001
0000
0100
0010
0100
0010
1000
0100
,
0010
0100
0010
0001
1000
0010
0100
0001
1000
0000
0010
0100
0010
1000
0001
0010
,
0001
0100
0010
0100
0010
1000
0100
0010
0001
0000
0100
0010
1000
0010
0100
0001
,
0100
0001
0010
0100
1000
0100
0010
0001
1000
0000
0010
1000
0100
0010
0001
0010
,
0100
1000
0100
0010
0001
0010
0100
1000
0001
0000
0100
0010
1000
0001
0100
0010
,
1000
0001
0100
0010
1000
0001
1000
0001
1000
0000
0010
0100
0010
1000
0100
1000
,
0010
0100
0010
1000
0100
1000
0001
0010
0001
0000
0100
0010
0100
0001
0010
0001
,
0100
0010
1000
0100
0010
0001
0100
0010
1000
0000
0000
0000
0000
0000
0001
1000
,
0001
0100
0000
0001
0000
0000
1000
0010
1000
0000
0000
0000
0000
0000
0010
0100
,
0010
1000
0000
1000
0000
0000
0001
0100
0001
0000
0000
0000
0000
0000
0100
0010
,
0100
0001
0000
0001
0000
0000
1000
0010
1000
0000
0000
0000
0000
0000
0100
0001
,
0100
0010
0000
0010
0000
0000
1000
0001
1000
0000
0010
0100
0001
0010
0100
1000
,
0100
0010
0001
0100
0010
0100
0001
1000
0001
0000
0100
0010
0100
0001
0100
0010
,
1000
0100
0010
0001
0100
0001
1000
0001
1000
0000
0001
0100
0010
0100
0001
0010
,
0100
0010
0001
1000
0100
0010
0100
1000
0001
0000
0100
0010
1000
0010
1000
0001
,
0100
0001
0100
0010
1000
0001
0010
0100
1000
0000
0001
0010
0001
0010
0100
1000
,
0100
1000
0010
0100
0001
1000
0010
0100
0001
0000
0100
0010
0100
0001
1000
0100
,
0010
0001
0010
0100
1000
0001
0010
0001
1000
0000
0010
1000
0010
1000
0001
0100
,
0010
0100
0001
1000
0100
0010
0100
1000
0001
0000
0100
0001
0100
0010
1000
0010
,
1000
0100
0010
0001
0100
0010
1000
0001
1000
0000
0010
0100
0010
1000
0100
1000
,
0001
0010
0001
0100
0010
0100
0001
0010
0001
0000
1000
0100
0010
0001
0010
0100
,
1000
0100
0010
0001
0010
0100
1000
0010
1000
0000
0001
0100
0010
1000
0001
0100
,
0010
1000
0001
0100
0010
1000
0001
1000
0001
0000
0100
0001
0100
0001
1000
0100
,
1000
0100
0010
0001
0010
0001
0100
0010
1000
0000
0000
0000
0000
0000
0001
1000
,
0001
0100
0000
0100
0000
0000
0010
1000
0010
0000
0000
0000
0000
0000
0010
1000
,
0010
0100
0000
0100
0000
0000
0001
0010
0001
0000
0000
0000
0000
0000
0001
0100
,
0001
1000
0000
1000
0000
0000
0010
1000
0010
0000
0000
0000
0000
0000
0010
0100
,
0010
1000
0000
1000
0000
0000
0001
0100
0001
0000
0000
0000
1000
0000
1100
0000
,
0000
1001
0000
0110
0000
1001
0000
1010
,
0000
0101
0000
0011
0000
1100
0000
1000
,
0010
0100
0010
1000
0001
0010
0100
1000
,
0010
0000
1000
0000
0001
0100
0010
1000
0001
0000
0000
0000
1000
0000
1010
0000
,
0000
0101
0000
1001
0000
0110
0000
1001
,
0000
1100
0000
1001
0000
0011
0000
0101
,
0000
0000
0001
0000
0100
0000
0010
0000
1000
0000
0001
0000
0010
0000
0001
0100
,
0010
1000
0001
0010
0100
1000
0001
1000
0002
0000
0000
0000
0000
0000
0000
0000
,
0000
0000
0000
0000
0000
1003
1000
0001
,
1000
0100
1000
0010
0100
0010
0100
0001
,
0010
0001
0100
0010
0100
0100
0001
0001
,
1000
0000
0010
0000
0100
0010
1000
0010
1000
0000
0001
0100
0010
0000
1000
0000
,
0001
0000
0100
0000
0010
0000
1000
0000
0010
0000
0100
0001
1000
0000
0001
0000
,
0100
0000
0010
0000
0100
0000
0001
0000
1000
0000
0010
0100
0010
0000
1000
0000
,
0001
0000
0100
0001
1000
0000
0001
0000
0001
0000
0100
0001
0100
0000
0001
0010
,
0000
0000
0001
0000
1000
0100
1000
0100
1000
0000
0001
0000
0001
0000
0100
0000
,
0100
0000
0010
0000
0010
0000
1000
0000
0001
0000
0010
0001
1000
0000
0010
0000
,
0010
0000
0100
0000
0001
0000
1000
0000
0001
0000
0010
0001
0010
0000
0001
0000
,
0010
0100
1000
1000
0100
0010
0001
0010
,
0100
0000
1000
0000
0001
0100
0001
0100
0001
0000
1000
0000
0010
0000
0100
0000
,
0010
0000
0010
0000
1000
0000
0001
0000
0010
0000
0001
1000
0001
0000
0100
0000
,
0010
0000
1000
0000
0010
0000
0100
0000
0001
0000
0100
0001
0100
0000
0010
0000
,
0010
0000
1000
0000
0010
0000
0100
0000
0001
0010
0001
1000
0010
0100
0001
1000
,
0100
0010
0001
0010
0100
1000
0010
0100
0001
0000
1000
0001
1000
0000
0010
0000
,
0010
0000
0100
0000
0100
0000
0001
0000
0001
0000
0100
0010
1000
0000
0001
0000
,
0001
0000
0010
0000
0100
0000
1000
0000
0100
0000
0010
0001
0100
0000
0100
0000
,
0010
0000
1000
0000
0010
0000
0100
0000
0001
0000
0100
0010
1000
0000
1000
0000
,
0100
0000
0010
0000
0001
0100
0010
1000
0001
0000
0100
0001
0100
0000
0010
0000
,
0010
0000
1000
0000
0001
0000
0010
0000
0100
0000
1000
0010
1000
0000
0001
0000
,
0100
0000
0001
0000
0010
0000
0001
0000
0100
0000
0010
1000
0010
0000
0100
0000
,
0001
0000
1000
0000
0010
0000
0100
0000
0001
0000
1000
0100
1000
0000
0010
0000
,
0010
0000
1000
0000
0001
0010
0001
0100
0010
0000
1000
0010
1000
0000
0010
0000
,
0100
0000
0001
0000
0001
0000
0100
0000
0010
0000
1000
0100
1000
0000
0001
0000
,
0001
0000
0100
0000
0001
0000
0100
0000
0010
0000
1000
0100
0010
0000
0001
0000
,
0001
0000
1000
0000
0100
0000
0010
0000
0001
0000
0100
0010
1000
0000
0001
0000
,
1000
0000
1000
0000
0010
0100
0001
0100
0001
0000
1000
0001
1000
0000
0010
0000
,
0010
0000
0100
0000
0100
0000
0001
0000
0010
0000
0001
0100
0010
0000
0100
0000
,
0100
0000
0001
0000
0010
0000
0100
0000
0010
0000
0001
1000
0100
0000
1000
0000
,
0010
0000
0010
0000
1000
0000
0001
0000
1000
0010
0100
0010
1000
0001
0010
0100
,
1000
0100
0010
0001
1000
0001
0100
0010
1000
0000
0001
0010
0001
0000
0100
0010
,
0100
0000
0001
0010
0001
0000
1000
0100
1000
0000
0001
0100
0001
0000
1000
0010
,
1000
0000
0001
0100
0010
0000
1000
0010
0100
0000
0001
1000
0100
0000
1000
0001
,
0100
0000
0001
1000
0010
0000
1000
0001
0010
0000
0001
1000
0001
0000
1000
0001
,
1000
0000
0010
0100
0010
1000
0100
1000
0001
0000
0100
0010
1000
0000
0100
0010
,
0001
0000
1000
0100
1000
0000
0010
0100
0010
0000
1000
0100
0010
0000
0001
0010
,
0100
0000
1000
0001
1000
0000
0001
1000
0001
0000
0100
0010
0100
0000
0010
0100
,
0010
0000
1000
0010
0100
0000
0001
0100
0010
0000
1000
0001
0010
0000
0001
0100
,
0001
1000
0100
0010
0001
0100
0010
1000
0001
0000
0000
0000
1000
0000
1100
0000
,
0000
1001
0000
1010
0000
1100
0000
0101
,
0000
0011
0000
1001
0000
0110
0000
2002
,
0000
0000
0000
0000
0000
0000
3003
0000
1000
0000
0001
0010
0001
0100
0010
0100
,
0001
0010
0001
0100
0010
0100
0001
1000
0001
0000
1000
0100
1000
0010
0100
0010
,
1000
0100
1000
0010
0100
0010
1000
0001
1000
0000
0001
1000
0001
0100
0010
0100
,
0001
1000
0001
0100
0010
0100
0001
1000
0001
0000
1000
0001
1000
0010
0100
0010
,
1000
0001
1000
0010
0100
0010
1000
0001
1000
0000
0010
0100
0001
0100
0001
1000
,
0010
1000
0010
0100
0001
0010
0100
1000
0001
0000
0001
0100
0001
0010
0001
0010
,
0100
1000
0100
1000
0010
0100
0001
1000
0001
0000
0100
0010
1000
0001
0100
0010
,
1000
0001
0010
0100
1000
0100
0010
0001
1000
0000
0010
0100
0001
1000
0100
0010
,
0001
0100
0001
0010
0100
1000
0010
1000
0001
0000
0100
0010
1000
0010
0100
0001
,
0100
0010
1000
0010
0100
0001
0100
0001
1000
0000
0001
0100
0001
1000
0010
1000
,
0001
0010
0001
1000
0100
1000
0001
1000
0001
0000
0001
0010
0001
1000
0001
1000
,
0010
0100
0001
1000
0100
0010
0001
1000
0001
0000
0100
0001
0100
0001
1000
0010
,
1000
0010
0100
0001
1000
0010
0100
0001
1000
0000
0000
0000
0000
0000
0001
1000
,
0001
0010
0000
0010
0000
0000
0001
0100
0001
0000
0000
0000
0000
0000
1000
0001
,
1000
0010
0000
0010
0000
0000
1000
0100
1000
0000
0000
0000
0000
0000
0010
1000
,
0010
0100
0000
0100
0000
0000
0001
0010
0001
0000
0000
0000
0000
0000
1000
0010
,
1000
0100
0000
0100
0000
0000
1000
0001
0100
0000
0100
0010
0100
0001
1000
0100
,
1000
0100
0010
0001
0010
0001
0100
0010
1000
0000
0001
0010
0100
1000
0100
0010
,
0001
0100
0001
0010
0100
1000
0010
1000
0001
0000
0100
0010
0100
0010
1000
0100
,
0010
0100
0010
0001
1000
0001
0010
0001
1000
0000
0010
0100
0001
0100
0001
0010
,
0001
1000
0100
1000
0010
0100
0001
1000
0001
0000
0100
0010
1000
0010
0100
0001
,
0100
0010
1000
0100
0010
0001
0010
0100
1000
0000
0001
0100
0010
1000
0001
0100
,
0010
0100
0001
0010
0001
0100
0010
0100
0001
0000
1000
0100
1000
0010
0100
0010
,
1000
0001
1000
0010
0100
0010
1000
0001
0100
0000
0100
0001
0100
0001
1000
0100
,
0010
0001
0010
0100
1000
0010
0100
0001
1000
0000
0010
1000
0001
0010
0100
1000
,
0001
0010
0100
1000
0001
0010
0100
1000
0001
0000
1000
0100
0010
0001
1000
0100
,
0010
0001
1000
0100
0010
0001
0100
0010
1000
0000
0001
1000
0100
1000
0001
0010
,
0100
0010
0001
1000
0100
1000
0001
1000
0001
0000
0100
0010
0100
0010
1000
0100
,
0010
0100
0010
0001
0100
0010
1000
0001
1000
0000
0000
0000
0000
0000
0010
1000
,
0010
0100
0000
0100
0000
0000
0001
1000
0001
0000
0000
0000
0000
0000
0010
1000
,
0010
0100
0000
0100
0000
0000
0001
0010
0001
0000
0000
0000
0000
0000
1000
0100
,
1000
0001
0000
0001
0000
0000
0100
0001
1000
0000
0000
0000
0000
0000
1000
0001
,
1000
0100
0000
0100
0000
0000
0010
0001
2000
0000
0000
0000
0000
0000
0000
0000
,
0000
0000
0000
0000
,
0000
0000
0000
0000
0000
0000
0000
3001
,
0100
0010
1000
0100
0010
0001
0001
0100
,
0100
0010
1000
0010
0100
0001
0010
0010
,
0001
0000
0100
0000
0010
0000
1000
0100
1000
0000
0001
0000
0001
0000
0010
0000
,
0001
0000
0100
0000
0010
0000
1000
0100
1000
0000
0010
0000
1000
0000
0001
0000
,
1000
1000
0010
0100
0001
0001
0100
0010
,
1000
0000
0001
0000
0001
0100
0010
0100
0001
0000
1000
0010
1000
0000
0010
0000
,
0010
0000
0100
0000
0010
0000
0100
0000
0001
0000
1000
0100
1000
0000
0001
0000
,
0001
0000
1000
0000
0010
0000
0100
0000
0001
0000
1000
0010
0100
0000
0001
0000
,
0001
0000
0010
0000
0100
0000
1000
0000
0001
0000
0010
0001
1000
0000
1000
0000
,
0100
0000
1000
0000
0001
0100
0001
0100
0010
0000
1000
0000
0001
0000
0010
0000
,
0100
0010
0001
1000
0100
0010
0100
1000
,
0001
0100
0010
1000
0001
0010
0100
1000
,
0010
0000
1000
0000
0001
0000
0001
0000
0100
0001
1000
0001
1000
0100
0010
0001
,
0100
0010
1000
0001
1000
0010
0100
0010
1000
0000
0001
0100
0001
0000
0100
0000
,
0010
0000
0010
0000
1000
0000
0001
0010
0001
0000
0100
0000
0010
0000
1000
0000
,
1000
0000
0001
0000
0001
0000
1000
0100
1000
0000
0001
0000
0100
0000
0001
0010
,
0001
0000
0100
0000
0010
0000
1000
0100
1000
0000
0010
0000
0010
0000
0100
0010
,
1000
0000
0010
0000
1000
0100
1000
0010
0100
0000
0010
1000
0010
0000
0100
0000
,
0001
0000
0001
0000
1000
0000
0100
1000
0001
0000
0100
0000
0010
0000
1000
0000
,
0001
0000
0001
0000
0100
0000
0010
1000
0001
0000
0001
0000
0100
0000
0010
0100
,
0010
0000
1000
0000
0001
0000
0010
0001
1000
0000
0010
0000
0010
0000
1000
0001
,
1000
0000
0001
0000
0001
1000
0100
0010
0001
0000
0100
0010
1000
0000
0010
0000
,
1000
0000
0001
0000
0010
0000
0001
1000
0001
0000
0100
0000
0010
0000
1000
0000
,
0010
0000
1000
0000
0001
0000
0100
0010
1000
0000
0001
0000
0100
0000
0001
0010
,
0001
0000
1000
0000
0001
0000
0100
0010
0100
0000
0010
0000
1000
0000
0001
0100
,
0010
0000
1000
0000
1000
0010
0100
0010
0100
0000
0001
0010
0100
0000
1000
0000
,
0001
0000
0100
0000
0010
0000
0010
0100
0001
0000
1000
0000
0100
0000
1000
0000
,
0001
0000
0010
0000
0001
0000
0100
0010
1000
0000
0001
0000
0100
0000
0001
0000
,
1000
0000
0010
0000
0100
0000
0001
0000
1000
0001
0010
0001
1000
0010
0100
0001
,
1000
0100
0010
0001
0010
0100
1000
0001
1000
0000
0010
0100
0010
0000
1000
0100
,
1000
0000
0010
0100
0010
0000
1000
0001
1000
0000
0001
1000
0001
0000
0100
0010
,
0100
0000
0001
0010
0001
1000
0100
0010
0001
0000
1000
0010
1000
0000
0001
0100
,
0001
0000
1000
0100
1000
0000
0001
0010
0001
0000
1000
0100
0010
0000
0001
0010
,
0100
0000
1000
0010
0100
0001
1000
0001
1000
0000
0010
0100
0001
0000
1000
0010
,
0100
0000
0001
1000
0001
0000
1000
0001
1000
0000
0010
1000
0100
0000
0010
0001
,
0100
0000
0010
1000
0010
1000
0001
0100
0001
0000
0100
0010
1000
0000
0100
0010
,
0001
0000
0100
0010
1000
0000
0100
0010
0001
0000
1000
0100
0010
0000
0001
0010
,
0100
0000
1000
0001
1000
0010
0100
0010
1000
0000
0001
1000
0100
0000
1000
0001
,
0100
0000
0001
1000
0100
0000
1000
0001
0100
0000
0001
1000
0010
0000
1000
0001
,
0010
0000
0001
0010
0001
0100
0010
0100
0001
0000
1000
0100
1000
0000
0010
0100
,
0010
0000
1000
0010
1000
0000
0001
0010
0001
0000
0100
0010
1000
0000
0001
1000
,
0001
0000
0100
0010
1000
0001
0010
0100
1000
0000
0001
0100
0010
0000
1000
0010
,
0100
0000
0001
1000
0001
0000
1000
0001
1000
0000
0010
0100
0010
0000
0100
0010
,
0100
0000
0001
0100
0010
1000
0100
0010
0001
0000
1000
0100
1000
0000
0010
0100
,
0001
0000
1000
0001
1000
0000
0010
0000
1000
0100
0010
0001
0010
0100
1000
0010
,
0100
0001
1000
0100
1000
0010
0100
0010
1000
0000
0001
0000
0010
0000
0001
0000
,
0100
0010
1000
0010
1000
0001
0010
0100
,
1000
0010
0100
0001
1000
0100
1000
0001
,
0010
0001
1000
0010
1000
0001
0010
0100
,
0010
0001
1000
0100
0010
0001
0010
0100
,
1000
0010
0100
0010
0100
0001
1000
0100
,
0010
0100
0010
0001
0100
0010
0100
0001
,
1000
0100
0001
0100
1000
0001
0100
0010
,
1000
0001
0010
0100
1000
0010
0100
0001
,
1000
0001
0100
1000
0100
0001
0001
0010
,
0001
0100
0010
0100
0001
1000
0010
1000
,
0100
0001
0100
1000
0010
0100
0001
0010
,
0100
1000
0100
0010
0001
0100
0010
1000
,
0001
0100
0010
1000
0010
1000
0100
0010
,
0001
0100
0010
1000
0010
1000
0001
0100
,
0001
0100
0010
1000
0100
0010
0001
0010
,
0010
0000
0100
0000
1000
0000
0001
1000
0200
0000
0000
0000
0000
0000
0000
0000
,
0000
0000
0000
0000
0000
0300
0000
0000
;
